花田少年史 原声集

说明

2019年5月4日更新:在楼下打印店扫描了一下BK,打印店扫描质量不是很好,凑合着看吧。链接内文件已更新,原链接仍然有效。

EAC自购自抓,至于扫图以后再补吧。等了将近一个月,终于把这CD从日本运回来了。之前查了一下这张原声集在公网上都是缺了第一首曲子「Prelude」的,加上仅有192K的音质,所以干脆去买了一张来抓轨了。本资源允许转载,请注明出处(贴本页面链接即可)。

介绍

ジャンル:サウンドトラック
カタログNo:VPCG-84779
組み枚数:1
レーベル:バップ
発売国:日本
フォーマット:CD

講談社漫画賞受賞の傑作ファンタジー・アニメ『花田少年史』のオリジナル・サントラ。平野義久が音楽を担当し、アコースティックで素朴な曲や、厚みのあるオーケストレーションの曲などを収録。(CDジャーナル データベースより)
【収録曲】

  1. Prelude
  2. The Mischievous Boy
  3. Play
  4. Childhood Memories Ⅱ
  5. Spring Has Come
  6. Scherzo
  7. Run!
  8. Fear
  9. Ghosts
  10. Lemento
  11. Go Home
  12. Under An Evening Glow
  13. Childhood Memories Ⅲ
  14. Longing
  15. A Walk
  16. Old Neighborhood
  17. Song of Father Ⅱ
  18. A Walk Ⅱ
  19. Waltz Desire
  20. Anxiety
  21. Hard Time
  22. Stealthy Steps
  23. Pitapat
  24. Crisis
  25. The One - solo piano version
  26. Ballad for Mother's Love Ⅱ
  27. Childfood Memories
  28. Spring Has Come Ⅱ
  29. Ballad for Mother's Love - instrumental
  30. Drowning - duo version
  31. Song of Father
  32. Tender Passion
  33. Ballad for Mother's Love
  34. Yesterdays
  35. That's It!

实拍图

LOG

点击展开查看
Exact Audio Copy V1.3 from 2. September 2016

EAC extraction logfile from 24. November 2018, 13:34

平野義久 / 花田少年史 オリジナルサウンドトラック

Used drive  : TSSTcorpDVD-ROM SH-118AB   Adapter: 1  ID: 0

Read mode               : Secure
Utilize accurate stream : Yes
Defeat audio cache      : No
Make use of C2 pointers : No

Read offset correction                      : 6
Overread into Lead-In and Lead-Out          : No
Fill up missing offset samples with silence : Yes
Delete leading and trailing silent blocks   : No
Null samples used in CRC calculations       : Yes
Used interface                              : Native Win32 interface for Win NT & 2000

Used output format : Internal WAV Routines
Sample format      : 44.100 Hz; 16 Bit; Stereo

TOC of the extracted CD

Track |   Start  |  Length  | Start sector | End sector
---------------------------------------------------------
1  |  0:00.00 |  0:58.10 |         0    |     4359
2  |  0:58.10 |  1:19.72 |      4360    |    10356
3  |  2:18.07 |  1:32.68 |     10357    |    17324
4  |  3:51.00 |  1:36.08 |     17325    |    24532
5  |  5:27.08 |  1:19.70 |     24533    |    30527
6  |  6:47.03 |  0:51.25 |     30528    |    34377
7  |  7:38.28 |  1:35.58 |     34378    |    41560
8  |  9:14.11 |  1:12.72 |     41561    |    47032
9  | 10:27.08 |  1:25.01 |     47033    |    53408
10  | 11:52.09 |  1:17.03 |     53409    |    59186
11  | 13:09.12 |  1:16.17 |     59187    |    64903
12  | 14:25.29 |  1:13.61 |     64904    |    70439
13  | 15:39.15 |  1:26.07 |     70440    |    76896
14  | 17:05.22 |  0:53.69 |     76897    |    80940
15  | 17:59.16 |  1:14.59 |     80941    |    86549
16  | 19:14.00 |  1:35.21 |     86550    |    93695
17  | 20:49.21 |  0:55.73 |     93696    |    97893
18  | 21:45.19 |  0:59.58 |     97894    |   102376
19  | 22:45.02 |  1:07.01 |    102377    |   107402
20  | 23:52.03 |  1:02.73 |    107403    |   112125
21  | 24:55.01 |  1:15.24 |    112126    |   117774
22  | 26:10.25 |  1:15.70 |    117775    |   123469
23  | 27:26.20 |  0:58.08 |    123470    |   127827
24  | 28:24.28 |  1:56.72 |    127828    |   136599
25  | 30:21.25 |  1:32.62 |    136600    |   143561
26  | 31:54.12 |  1:15.03 |    143562    |   149189
27  | 33:09.15 |  1:49.60 |    149190    |   157424
28  | 34:59.00 |  1:18.19 |    157425    |   163293
29  | 36:17.19 |  1:24.57 |    163294    |   169650
30  | 37:42.01 |  1:21.04 |    169651    |   175729
31  | 39:03.05 |  1:05.19 |    175730    |   180623
32  | 40:08.24 |  1:25.54 |    180624    |   187052
33  | 41:34.03 |  1:24.12 |    187053    |   193364
34  | 42:58.15 |  1:28.61 |    193365    |   200025
35  | 44:27.01 |  0:49.65 |    200026    |   203765

Range status and errors

Selected range

Filename E:\VPCG-84779.wav

Peak level 100.0 %
Extraction speed 7.6 X
Range quality 100.0 %
Copy CRC A1062370
Copy OK

No errors occurred

End of status report

---- CUETools DB Plugin V2.1.6

[CTDB TOCID: PToL_CDIts17NHyzHeLVxKvEyQI-] found
Submit result: PToL_CDIts17NHyzHeLVxKvEyQI- has been confirmed
Track | CTDB Status
1   | (3/3) Accurately ripped
2   | (3/3) Accurately ripped
3   | (3/3) Accurately ripped
4   | (3/3) Accurately ripped
5   | (3/3) Accurately ripped
6   | (3/3) Accurately ripped
7   | (3/3) Accurately ripped
8   | (3/3) Accurately ripped
9   | (3/3) Accurately ripped
10   | (3/3) Accurately ripped
11   | (3/3) Accurately ripped
12   | (3/3) Accurately ripped
13   | (3/3) Accurately ripped
14   | (3/3) Accurately ripped
15   | (3/3) Accurately ripped
16   | (3/3) Accurately ripped
17   | (3/3) Accurately ripped
18   | (3/3) Accurately ripped
19   | (3/3) Accurately ripped
20   | (3/3) Accurately ripped
21   | (3/3) Accurately ripped
22   | (3/3) Accurately ripped
23   | (3/3) Accurately ripped
24   | (3/3) Accurately ripped
25   | (3/3) Accurately ripped
26   | (3/3) Accurately ripped
27   | (3/3) Accurately ripped
28   | (3/3) Accurately ripped
29   | (3/3) Accurately ripped
30   | (3/3) Accurately ripped
31   | (3/3) Accurately ripped
32   | (3/3) Accurately ripped
33   | (3/3) Accurately ripped
34   | (3/3) Accurately ripped
35   | (3/3) Accurately ripped

==== Log checksum 92F3204D1B120B2851C2DDEEE976178529FA259331CF044A810838F2583DB983 ====

下载地址

本地下载 云盘下载
提取密码:k6ec
解压密码:(无)
MD5: 92A578C1E77DA99BD373283BA133CC1D
SHA1: 0A9AEA833189A2289A06F0BB9470040DED307655
CRC32: AED5749B
点赞
  1. 眯3象说道:
    Safari iPhone iOS 12.2

    请问有扫描图吗?好喜欢这个封面和内页。想用来定制kindle 保护套

    1. Hanada说道:
      Google Chrome Android 8.0.0

      巧了,我今天刚扫图,过两天就传上来 :ku:

      1. 眯3象说道:
        Safari iPhone iOS 12.2

        哈哈!谢谢! ٩(ˊᗜˋ*)و 你是天使!

    2. Hanada说道:
      Google Chrome Windows 10

      已经上传了,画质有点不太好,凑合或者PS一下吧

  2. Tsurugi_说道:
    QQbrowser Android 7.0

    这是什么?

    1. Hanada说道:
      Google Chrome Windows 10

      一部动画的OST原声集 :yinxian:

      1. Tsurugi_说道:
        QQbrowser Android 7.0

        看一下贴吧私信

眯3象进行回复 取消回复

电子邮件地址不会被公开。必填项已用 * 标注